Try Our New BETA Version
GO
(navigation image)
Home Audio Books & Poetry | Community Audio | Computers & Technology | Grateful Dead | Live Music Archive | Music, Arts & Culture | Netlabels | News & Public Affairs | Non-English Audio | Podcasts | Radio Programs | Spirituality & Religion
Search: Advanced Search
Anonymous User (login or join us)
Upload

Listen to audio

item image
Run time: 144 minutes

Stream (help[help])

VBR M3U
MP3 via M3U

Play / Download (help[help])

VBR ZIP

Ogg Vorbis

Lossless zip


All Files: HTTPS Torrent (2/0)

Resources

Bookmark

Stanton MooreStanton Moore Live at The Mint on 2013-07-10 (July 10, 2013)

something has gone horribly wrong 8-p
Prefer flash? · Embed · Questions/Feedback?


Collection: StantonMoore
Band/Artist: Stanton Moore
Date: July 10, 2013 (check for other copies)
Venue: The Mint
Location: Los Angeles, CA

Source: MADr (master audience digital recording)
Lineage: SDHC > USB 2.0 > WAV > FLAC
Taped by: macdaddy
Transferred by: macdaddy


Description

Stanton Moore with Wil Blades and Mike Dillon: Pot Licker, ?, Fat Redneck Dancer, Tchfunkta, Dugout, ?, Pie-Eyed Manc, Maple Plank, (drums), Sprung Monkey, Lopsided Melon Ball, 32nd St., ?

Notes

AKG c422 > s42 > Grace Design Lunatec V2 > Sonic AD2K+ > Roland R-44 (S/PDIF/digital input)



Location: ~Center, ~15' back, ~8' high, Matthellini clamp/magic finger + Manfrotto 099b extension pole, nanoclamp
Mic Config: X/Y (supercardioid)
Record Format: 24-bit, 96 kHz
Transfer: SDHC card > USB 2.0 card reader > MacBook Air
Edits and Tracking: Waves C6, quadratic (linear) fades, change gain (Wave Editor 1.5.7)
Resample: Ultra-steep, Linear Phase (Izotope ReSampler/Wave Editor 1.5.7)
Dither: Ultra Shape, High Amount (MBIT+/Wave Editor 1.5.7)
Final Format: 16-bit, 44.1 kHz
Encode, Verify, Tagging, ReplayGain: xACT 2.23



Stanton Moore (drums, cymbals)
Wil Blades (keyboards)

with
* Mike Dillon (percussion)



length expanded size cdr WAVE problems fmt ratio filename
0:49.29 8711852 B --- -- ----- wav 1.0000 sm2013-07-10t01.wav
5:12.15 55072124 B --- -- ----- wav 1.0000 sm2013-07-10t02.wav
11:33.28 122311100 B --- -- ----- wav 1.0000 sm2013-07-10t03.wav
8:43.16 92294876 B --- -- ----- wav 1.0000 sm2013-07-10t04.wav
17:56.73 189978140 B --- -- ----- wav 1.0000 sm2013-07-10t05.wav
13:13.43 139986380 B --- -- ----- wav 1.0000 sm2013-07-10t06.wav
11:28.05 121375004 B --- -- ----- wav 1.0000 sm2013-07-10t07.wav
0:22.11 3906716 B --- -- ----- wav 1.0000 sm2013-07-10t08.wav
5:17.63 56067020 B --- -- ----- wav 1.0000 sm2013-07-10t09.wav
9:05.10 96161564 B --- -- ----- wav 1.0000 sm2013-07-10t10.wav
8:16.31 87567356 B --- -- ----- wav 1.0000 sm2013-07-10t11.wav
11:20.72 120121388 B --- -- ----- wav 1.0000 sm2013-07-10t12.wav
14:29.15 153326924 B --- -- ----- wav 1.0000 sm2013-07-10t13.wav
9:23.24 99369692 B --- -- ----- wav 1.0000 sm2013-07-10t14.wav
16:26.10 173953964 B --- -- ----- wav 1.0000 sm2013-07-10t15.wav
143:37.70 1520204100 B 1.0000 (15 files)



### FREE ###
The musicians allowed this recording for FREE.
PLEASE...
- Only share this recording with others for FREE.
- Do NOT sell or trade this recording for profit of any kind.

### SUPPORT MUSICIANS ###
Help ensure live recordings remain easily accessible and FREE by supporting the musicians:
- attend their live shows
- purchase their dry goods
- buy their studio releases

For more information on the musicians, their tours, and
studio recordings visit http://www.stantonmoore.com/



++ recorded, transferred and uploaded by macdaddy (July 30, 2013)

Individual Files

Whole Item FormatSize
[generated M3U] M3U Stream 
[generated VBR MP3 ZIP] VBR MP3 ZIP Stream 
Audio Files Flac VBR MP3 Ogg Vorbis PNG
(Set One) 10.7 MB 
1.1 MB 
527.6 KB 
7.3 KB 
Pot Licker 37.8 MB 
7.0 MB 
3.5 MB 
10.6 KB 
sm2013-07-10t03 71.9 MB 
15.5 MB 
7.9 MB 
11.0 KB 
Fat Redneck Dancer 55.9 MB 
11.6 MB 
5.9 MB 
9.6 KB 
Tchfunkta 90.2 MB 
23.4 MB 
11.8 MB 
8.6 KB 
Dugout 73.9 MB 
17.5 MB 
8.7 MB 
8.5 KB 
sm2013-07-10t07 65.9 MB 
15.1 MB 
7.5 MB 
8.9 KB 
(Set Two) 8.8 MB 
555.0 KB 
230.6 KB 
4.3 KB 
Pie-Eyed Manc 35.9 MB 
7.1 MB 
3.6 MB 
10.5 KB 
Maple Plank 54.6 MB 
12.1 MB 
6.1 MB 
9.7 KB 
(drums) 49.4 MB 
11.0 MB 
5.6 MB 
10.0 KB 
Sprung Monkey 69.3 MB 
15.4 MB 
7.8 MB 
9.9 KB 
Lopsided Melon Ball 76.9 MB 
18.9 MB 
9.5 MB 
9.7 KB 
32nd St. 54.6 MB 
12.4 MB 
6.2 MB 
9.3 KB 
sm2013-07-10t15 94.9 MB 
22.2 MB 
11.2 MB 
9.8 KB 
Image Files JPEG JPEG Thumb
sm2013-07-10pic.JPG 1.3 MB 
5.6 KB 
Information FormatSize
sm2013-07-10.flac16.ffp Flac FingerPrint 810.0 B 
sm2013-07-10.flac16.md5 Checksums 825.0 B 
sm2013-07-10flac16.ffp Flac FingerPrint 882.0 B 
sm2013-07-10.flac16_files.xml Metadata [file] 
sm2013-07-10.flac16_meta.xml Metadata 3.7 KB 
sm2013-07-10wav16.st5 SHNtool MD5 Checksums 1.0 KB 
Other Files Archive BitTorrent Text
sm2013-07-10.flac16_archive.torrent 35.0 KB 
sm2013-07-10.txt 3.0 KB 

Be the first to write a review
Downloaded 152 times
Reviews


Terms of Use (31 Dec 2014)